<?xml version="1.0" standalone="no"?>
<!DOCTYPE svg PUBLIC "-//W3C//DTD SVG 1.1//EN" "http://www.w3.org/Graphics/SVG/1.1/DTD/svg11.dtd" >
<svg xmlns="http://www.w3.org/2000/svg" xmlns:xlink="http://www.w3.org/1999/xlink" version="1.1">
<metadata>
Created by FontForge 20170731 at Wed Aug  3 17:22:57 2016
 By Aleksey,,,
</metadata>
<defs>
<font id="Porter-Display" horiz-adv-x="351" >
  <font-face 
    font-family="Porter Display"
    font-weight="400"
    font-stretch="expanded"
    units-per-em="700"
    panose-1="0 0 5 5 0 0 0 0 0 0"
    ascent="560"
    descent="-140"
    x-height="371"
    cap-height="500"
    bbox="25 -200 1159 736"
    underline-thickness="50"
    underline-position="-150"
    unicode-range="U+0020-2122"
  />
<missing-glyph horiz-adv-x="313" 
d="M256 -100h-198v625h198v-625zM105 483v-20h41v-24h-42v-20h104v20h-41v24h41v20h-103zM104 403v-65h104v21h-41v44h-63zM146 359h-21v22h21v-22zM104 321v-21h42v-23h-42v-21h63v44h41v21h-104zM188 283v-41h-84v-21h104v62h-20zM146 207v-35h21v14h21v-29h-63v50h-21
v-71h104v71h-62zM104 99v-71h104v71h-104zM188 49h-63v29h63v-29zM104 14v-21h44l-44 -29v-21h104v21h-64l44 29h20v21h-104z" />
    <glyph glyph-name="f_f" unicode="ff" horiz-adv-x="730" 
d="M602 470q-17 -17 -17 -46v-54h90v-57h-90v-210q0 -19 13 -32t32 -13h34v-58h-279v58h34q19 0 32.5 13t13.5 32v210l-230 1v-211q0 -19 13 -32t32 -13h34v-58h-279v58h34q19 0 32.5 13t13.5 32v211h-79v57h79v39q0 62 36.5 101.5t109.5 39.5q32 0 53.5 -8.5t30.5 -17.5
v-57q-12 10 -24 14.5t-28 4.5q-24 0 -41 -17t-17 -46v-53l230 -1v40q0 62 36.5 101.5t109.5 39.5q32 0 53.5 -8.5t30.5 -17.5v-57q-12 10 -24 14.5t-28 4.5q-24 0 -41 -17z" />
    <glyph glyph-name="f_f_i" unicode="ffi" horiz-adv-x="1050" 
d="M810 438.5q-22 21.5 -22 51.5q0 29 22 50.5t51 21.5t51 -21.5t22 -50.5q0 -30 -22 -51.5t-51 -21.5t-51 21.5zM1015 58v-58h-281v58h35q19 0 32.5 13t13.5 32v165q0 19 -13.5 32.5t-32.5 13.5h-185v-211q0 -19 13 -32t32 -13h34v-58h-279v58h34q19 0 32.5 13t13.5 32v211
h-229v-211q0 -19 13 -32t32 -13h34v-58h-279v58h34q19 0 32.5 13t13.5 32v211h-79v57h79v39q0 62 36.5 101.5t109.5 39.5q32 0 53.5 -8.5t30.5 -17.5v-57q-12 10 -24 14.5t-28 4.5q-24 0 -41 -17t-17 -46v-53h229v39q0 62 36.5 101.5t109.5 39.5q32 0 53.5 -8.5t30.5 -17.5
v-57q-12 10 -24 14.5t-28 4.5q-24 0 -41 -17t-17 -46v-53h351v-268q0 -19 13 -32t32 -13h35z" />
    <glyph glyph-name=".notdef" horiz-adv-x="313" 
d="M256 -100h-198v625h198v-625zM105 483v-20h41v-24h-42v-20h104v20h-41v24h41v20h-103zM104 403v-65h104v21h-41v44h-63zM146 359h-21v22h21v-22zM104 321v-21h42v-23h-42v-21h63v44h41v21h-104zM188 283v-41h-84v-21h104v62h-20zM146 207v-35h21v14h21v-29h-63v50h-21
v-71h104v71h-62zM104 99v-71h104v71h-104zM188 49h-63v29h63v-29zM104 14v-21h44l-44 -29v-21h104v21h-64l44 29h20v21h-104z" />
    <glyph glyph-name=".null" horiz-adv-x="0" 
 />
    <glyph glyph-name="nonmarkingreturn" horiz-adv-x="233" 
 />
    <glyph glyph-name="space" unicode=" " horiz-adv-x="400" 
 />
    <glyph glyph-name="exclam" unicode="!" horiz-adv-x="217" 
d="M67.5 252.5q-14.5 42.5 -28.5 93t-14 80.5q0 38 24 66t61 28q36 0 59 -28t23 -66q0 -30 -12 -80.5t-24.5 -93t-16.5 -54.5h-52q-5 12 -19.5 54.5zM61.5 11q-21.5 22 -21.5 53q0 30 22 52.5t52 22.5q35 0 55.5 -21.5t20.5 -53.5t-21.5 -53.5t-54.5 -21.5q-31 0 -52.5 22z
" />
    <glyph glyph-name="quotedbl" unicode="&#x22;" horiz-adv-x="315" 
d="M116 363.5q-16 -64.5 -22 -86.5h-31q-6 22 -22 87t-16 85q0 25 14.5 42.5t38.5 17.5q25 0 39.5 -17.5t14.5 -42.5q0 -21 -16 -85.5zM274 363.5q-16 -64.5 -22 -86.5h-31q-6 22 -22 87t-16 85q0 25 14.5 42.5t38.5 17.5q25 0 39.5 -17.5t14.5 -42.5q0 -21 -16 -85.5z" />
    <glyph glyph-name="numbersign" unicode="#" horiz-adv-x="331" 
d="M243 264l-8 -52h57l-7 -47h-57l-10 -64h-48l10 64h-48l-10 -64h-48l10 64h-59l7 47h59l8 52h-60l7 47h60l11 68h48l-11 -68h48l11 68h48l-11 -68h56l-7 -47h-56zM195 264h-48l-8 -52h48z" />
    <glyph glyph-name="dollar" unicode="$" horiz-adv-x="749" 
d="M625 25q-89 -33 -211 -34v-59h-92v62q-123 10 -208 52l-24 -45h-55v186h55q2 -11 29 -37.5t78.5 -51t124.5 -32.5v100l92 -14v-87q54 5 91.5 22t37.5 41q0 27 -34 40.5t-121 27.5q-157 25 -253 60.5t-96 102.5q0 77 74 114.5t198 37.5h10v57h93v-61q61 -6 105 -19t82 -32
l24 45h55v-166h-55q1 8 -22 31t-70.5 45t-118.5 29v-82l-93 15v69q-56 -4 -82.5 -18t-26.5 -35t45.5 -34.5t151.5 -30.5q134 -21 219.5 -62t85.5 -121q0 -83 -89 -116z" />
    <glyph glyph-name="percent" unicode="%" horiz-adv-x="722" 
d="M338.5 308q-50.5 -29 -130.5 -29h-1q-80 0 -131 29t-51 86t51 86.5t131 29.5h1q82 0 131.5 -29t49.5 -87q0 -57 -50.5 -86zM631 437l-507 -416l-40 44l507 416zM271 337.5q24 19.5 24 56.5q0 38 -23 57.5t-65 19.5q-40 0 -64.5 -19.5t-24.5 -57.5q0 -37 24.5 -56.5
t64.5 -19.5t64 19.5zM646.5 19q-50.5 -29 -130.5 -29h-1q-80 0 -131 29t-51 86t51 86.5t131 29.5h1q83 0 132 -29t49 -87q0 -57 -50.5 -86zM579 48.5q24 19.5 24 56.5q0 38 -22.5 57.5t-65.5 19.5q-40 0 -64.5 -19.5t-24.5 -57.5q0 -37 24.5 -56.5t64.5 -19.5t64 19.5z" />
    <glyph glyph-name="ampersand" unicode="&#x26;" horiz-adv-x="753" 
d="M728 127v-9q0 -57 -35 -98t-100 -41q-66 0 -137 53l-3 2q-88 -55 -189 -55q-113 0 -176 34t-63 105q0 48 32 82t91 63l-11 8q-24 18 -36.5 44.5t-12.5 56.5q0 38 21 71t65 53.5t109 20.5q50 0 85.5 -17.5t54 -45t18.5 -58.5q0 -25 -12 -47.5t-36 -36.5q-35 -22 -59 -35
l153 -114q22 24 40 47q6 8 6 14q0 11 -17 11h-35v54h220v-54h-31q-25 0 -41 -19l-21 -27q-32 -45 -58 -73l34 -25q20 -13 36 -13q17 0 28.5 11.5t11.5 32.5v5h68zM273 322q43 22 64 39q18 14 18 39q0 24 -18.5 42.5t-52.5 18.5q-35 0 -54 -16.5t-19 -40.5q0 -16 10 -33.5
t29 -31.5zM386 85l-169 126q-27 -17 -40 -36t-13 -44q0 -39 32 -58t69 -19q62 0 121 31z" />
    <glyph glyph-name="quotesingle" unicode="'" horiz-adv-x="157" 
d="M116 363.5q-16 -64.5 -22 -86.5h-31q-6 22 -22 87t-16 85q0 25 14.5 42.5t38.5 17.5q25 0 39.5 -17.5t14.5 -42.5q0 -21 -16 -85.5z" />
    <glyph glyph-name="parenleft" unicode="(" horiz-adv-x="264" 
d="M179.5 -23q-59.5 32 -107 102t-47.5 190t47.5 190t107 101.5t59.5 24.5v-42q0 6 -28 -22t-50.5 -88.5t-22.5 -163.5t22.5 -164t50.5 -89t28 -22v-42q0 -7 -59.5 25z" />
    <glyph glyph-name="parenright" unicode=")" horiz-adv-x="264" 
d="M25 -6q0 -6 28 22t50.5 89t22.5 164t-22.5 163.5t-50.5 88.5t-28 22v42q0 7 59.5 -24.5t107 -101.5t47.5 -190t-47.5 -190t-107 -102t-59.5 -25v42z" />
    <glyph glyph-name="asterisk" unicode="*" horiz-adv-x="302" 
d="M128.5 251.5q-8.5 10.5 -8.5 24.5q0 13 10 63q0 3 -2.5 4.5t-3.5 0.5q-25 -25 -49 -41q-7 -5 -20 -5q-16 0 -26 13q-4 7 -4 16q0 19 20 28q15 11 58 23q3 2 3 5t-3 4q-40 11 -59 22q-19 10 -19 29q0 8 4 15q11 15 27 15q10 0 19 -6q23 -16 49 -39q3 -2 4.5 -1t1.5 3
q-10 34 -10 64q0 15 8.5 25t22.5 10t22.5 -10t8.5 -25q0 -27 -12 -64q0 -2 2 -3t4 1q23 21 50 39q10 6 21 6q19 0 26 -15q4 -7 4 -15q0 -9 -5 -16.5t-13 -12.5q-23 -11 -60 -22q-2 -1 -2 -4t2 -5q48 -14 60 -23q18 -10 18 -28q0 -14 -9 -21.5t-22 -7.5q-10 0 -20 5
q-27 18 -50 41q-1 1 -2 0t0 -5q8 -40 8 -63q0 -14 -8.5 -24.5t-22.5 -10.5t-22.5 10.5z" />
    <glyph glyph-name="plus" unicode="+" horiz-adv-x="380" 
d="M345 206h-115v-105h-80v105h-115v80h115v105h80v-105h115v-80z" />
    <glyph glyph-name="comma" unicode="," horiz-adv-x="202" 
d="M177 63q-1 -69 -29 -104.5t-74 -60.5l-22 37q31 16 49.5 34.5t27.5 52.5q-3 -9 -14 -16t-29 -7q-26 -2 -43.5 17t-17.5 51q0 30 22.5 53.5t53.5 23.5q33 0 53.5 -20t22.5 -50v-11z" />
    <glyph glyph-name="hyphen" unicode="-" horiz-adv-x="370" 
d="M25 324h320v-90h-320v90z" />
    <glyph glyph-name="period" unicode="." horiz-adv-x="200" 
d="M46.5 11q-21.5 22 -21.5 53q0 30 22 52.5t52 22.5q35 0 55.5 -21.5t20.5 -53.5t-21.5 -53.5t-54.5 -21.5q-31 0 -52.5 22z" />
    <glyph glyph-name="slash" unicode="/" horiz-adv-x="422" 
d="M276 510h121l-251 -525h-121z" />
    <glyph glyph-name="zero" unicode="0" horiz-adv-x="818" 
d="M731.5 107.5q-51.5 -57.5 -136 -85t-185.5 -27.5h-1q-105 0 -189.5 27.5t-134.5 84.5t-50 143t50 143t134.5 84.5t189.5 27.5q101 0 186 -27.5t136.5 -84.5t51.5 -143q0 -85 -51.5 -142.5zM558.5 111.5q60.5 46.5 60.5 138.5t-60.5 138.5t-149.5 46.5q-106 0 -158 -44
t-52 -141t52 -141t158 -44q89 0 149.5 46.5z" />
    <glyph glyph-name="one" unicode="1" horiz-adv-x="435" 
d="M400 68v-68h-365v68h52q27 0 46.5 19t19.5 46v171q-2 27 -20 38.5t-56 11.5h-37v62h1q49 0 98.5 22.5t77.5 56.5h65v-362q0 -27 19 -46t46 -19h53z" />
    <glyph glyph-name="two" unicode="2" horiz-adv-x="762" 
d="M726.5 188.5q0.5 -4.5 0.5 -11.5q0 -63 -48 -122t-189 -59q-49 0 -81 7.5t-71 21.5q-35 12 -56.5 17t-51.5 5q-42 0 -69 -10.5t-40.5 -22.5t-13.5 -14h-72q0 89 40.5 159t162.5 106q70 21 146 41q57 15 83 23.5t38 18.5t12 26q0 35 -48 53t-118 18q-57 0 -108.5 -11
t-74.5 -30q20 -8 32.5 -25.5t12.5 -39.5q0 -29 -24 -48.5t-58 -19.5t-58.5 24t-24.5 58v1q0 56 57.5 90t139 48t162.5 14q115 0 202 -30.5t87 -107.5q0 -69 -82 -109.5t-251 -64.5q-69 -10 -121 -32t-87 -68q27 21 73 35t95 14q43 0 79 -11q72 -22 132 -22q58 0 90.5 21.5
t32.5 62.5h69q0 -1 0.5 -5.5z" />
    <glyph glyph-name="three" unicode="3" horiz-adv-x="673" 
d="M551.5 264q33.5 -11 60 -38t26.5 -72q0 -47 -36.5 -83t-106.5 -56t-167 -20q-95 0 -161 19t-99 51.5t-33 71.5q0 30 21.5 51t50.5 21q30 0 51 -17.5t21 -42.5q0 -29 -23 -47q55 -31 175 -31q78 0 114 26t36 59q0 28 -18.5 46t-69 28.5t-143.5 10.5v53q132 0 181.5 21
t49.5 54q0 32 -35 53t-115 21q-109 0 -165 -33q12 -8 19 -21t7 -28q0 -25 -21 -42.5t-51 -17.5q-29 0 -50.5 21t-21.5 51q0 23 13 42q26 39 93 64.5t174 25.5q97 0 162.5 -18t96 -45.5t30.5 -56.5q0 -59 -39 -82t-82 -29q22 1 55.5 -10z" />
    <glyph glyph-name="four" unicode="4" horiz-adv-x="740" 
d="M562 154v-21q0 -27 19 -46t46 -19h53v-68h-365v68h52q27 0 46.5 19t19.5 46v21h-398v72l387 274h140v-274h143v-72h-143zM433 226v182l-257 -182h257z" />
    <glyph glyph-name="five" unicode="5" horiz-adv-x="687" 
d="M571.5 305.5q80.5 -37.5 80.5 -129.5q0 -102 -104.5 -141.5t-253.5 -39.5q-60 0 -119 10t-96 34q-44 29 -44 80q0 29 23 51.5t56 22.5q34 0 56.5 -19.5t22.5 -48.5q0 -37 -23 -54q38 -16 93 -16q100 0 159 28.5t59 86.5q0 43 -18.5 65.5t-56.5 30.5t-104 8q-55 0 -95 -13
t-62.5 -28.5t-22.5 -17.5h-74v285h52l1 -43q20 22 64.5 36.5t96.5 14.5q33 0 54.5 -3t49.5 -9q29 -6 51.5 -9t56.5 -3q59 0 95 6t52 13t16 9q0 -30 -28 -72.5t-128 -42.5q-56 0 -118 10q-6 1 -32.5 5t-59.5 4q-48 0 -77 -10t-45.5 -41t-16.5 -91q0 4 20 21t67.5 32.5
t126.5 15.5q145 0 225.5 -37.5z" />
    <glyph glyph-name="six" unicode="6" horiz-adv-x="705" 
d="M590.5 286q79.5 -39 79.5 -122q0 -84 -89.5 -126.5t-223.5 -42.5q-93 0 -165.5 28.5t-114.5 86t-42 140.5q0 76 44 134t121.5 89.5t175.5 31.5q84 0 155.5 -14.5t105.5 -46.5q15 -12 21 -31q4 -9 4 -23q0 -30 -21.5 -51t-50.5 -21q-30 0 -51 17.5t-21 42.5q0 19 11 35
q-20 17 -53.5 25.5t-72.5 8.5q-33 0 -65 -6t-55 -16q-43 -19 -63.5 -60t-21.5 -97q88 57 193 57q120 0 199.5 -39zM472.5 90q42.5 25 42.5 70q0 44 -42.5 69.5t-107.5 25.5t-107.5 -25.5t-42.5 -69.5q0 -45 42.5 -70t107.5 -25t107.5 25z" />
    <glyph glyph-name="seven" unicode="7" horiz-adv-x="709" 
d="M674 499q0 -40 -25.5 -71t-81.5 -81q-59 -51 -96.5 -93t-65 -106t-27.5 -148h-172q0 104 43.5 178t102.5 118t145 91q-37 -11 -77 -11q-39 0 -100 13q-26 5 -55.5 9t-55.5 4q-52 0 -84 -19.5t-32 -49.5v-11h-58v177h50v-60q0 4 13.5 19.5t45.5 29.5t86 14q60 0 106.5 -6
t101.5 -17q40 -8 66.5 -11.5t54.5 -3.5q20 0 43 9.5t23 25.5h49z" />
    <glyph glyph-name="eight" unicode="8" horiz-adv-x="683" 
d="M648 146q0 -71 -79 -113.5t-227 -42.5q-149 0 -228 39t-79 106q0 83 121 125q-89 45 -89 117q0 77 75 105t203 28q125 0 199 -29t74 -94q0 -64 -90 -102q120 -51 120 -139zM257.5 428q-31.5 -15 -31.5 -37q0 -17 31.5 -28.5t99.5 -27.5l71 -17q61 33 61 68q0 11 -12.5 24
t-41.5 23t-76 10q-70 0 -101.5 -15zM433.5 74q53.5 14 53.5 51q0 28 -38 44t-121 36q-46 11 -81 21q-32 -10 -56.5 -30t-24.5 -52q0 -48 54.5 -66t112.5 -18q47 0 100.5 14z" />
    <glyph glyph-name="nine" unicode="9" horiz-adv-x="705" 
d="M513.5 476.5q72.5 -28.5 114.5 -86t42 -140.5q0 -80 -45.5 -138t-123 -87.5t-172.5 -29.5h-26h-5q-5 0 -7 1q-73 2 -133 17t-90 43q-15 12 -21 31q-4 9 -4 23q0 30 21.5 51t50.5 21q30 0 51 -17.5t21 -42.5q0 -19 -11 -35q60 -23 119 -23h3h3q56 1 103 20.5t75 57.5
t28 90q-88 -57 -193 -57q-120 0 -199.5 39t-79.5 122q0 84 89.5 126.5t223.5 42.5q93 0 165.5 -28.5zM447.5 270.5q42.5 25.5 42.5 69.5q0 45 -42.5 70t-107.5 25t-107.5 -25t-42.5 -70q0 -44 42.5 -69.5t107.5 -25.5t107.5 25.5z" />
    <glyph glyph-name="colon" unicode=":" horiz-adv-x="200" 
d="M46.5 263q-21.5 22 -21.5 53q0 30 22 52.5t52 22.5q35 0 55.5 -21.5t20.5 -53.5t-21.5 -53.5t-54.5 -21.5q-31 0 -52.5 22zM46.5 16q-21.5 22 -21.5 53q0 30 22 52.5t52 22.5q35 0 55.5 -21.5t20.5 -53.5t-21.5 -53.5t-54.5 -21.5q-31 0 -52.5 22z" />
    <glyph glyph-name="semicolon" unicode=";" horiz-adv-x="202" 
d="M48.5 262q-21.5 22 -21.5 53q0 30 22 52.5t52 22.5q35 0 55.5 -21.5t20.5 -53.5t-21.5 -53.5t-54.5 -21.5q-31 0 -52.5 22zM177 63q-1 -69 -29 -104.5t-74 -60.5l-22 37q31 16 49.5 34t27.5 52q-4 -10 -15.5 -17.5t-27.5 -4.5q-26 -2 -43.5 17t-17.5 51q0 30 22.5 53.5
t53.5 23.5q33 0 53.5 -20t22.5 -50v-11z" />
    <glyph glyph-name="less" unicode="&#x3c;" horiz-adv-x="432" 
d="M140 255l267 -164l-29 -44l-353 170v76l353 170l29 -52z" />
    <glyph glyph-name="equal" unicode="=" horiz-adv-x="460" 
d="M25 354h410v-80h-410v80zM25 185h410v-80h-410v80z" />
    <glyph glyph-name="greater" unicode="&#x3e;" horiz-adv-x="432" 
d="M407 293v-76l-353 -170l-29 44l267 164l-267 156l29 52z" />
    <glyph glyph-name="question" unicode="?" horiz-adv-x="515" 
d="M393.5 497q52.5 -20 76.5 -51t24 -66q0 -41 -31.5 -68t-89.5 -55q-44 -22 -65 -38t-21 -37h-81q0 33 19 56t57 53q33 25 49.5 44.5t16.5 44.5q0 34 -24 59.5t-76 25.5q-56 0 -87 -17t-40 -31q19 -1 31 -18.5t12 -39.5q0 -29 -20 -49.5t-51 -20.5q-28 0 -48 20.5t-20 49.5
q0 43 33.5 79.5t87.5 57.5t112 21q83 0 135.5 -20zM303.5 118.5q20.5 -21.5 20.5 -53.5t-21.5 -53.5t-54.5 -21.5q-31 0 -52.5 22t-21.5 53q0 30 22 52.5t52 22.5q35 0 55.5 -21.5z" />
    <glyph glyph-name="at" unicode="@" horiz-adv-x="846" 
d="M620.5 478q83.5 -31 129.5 -90t46 -140q0 -55 -25 -93.5t-64 -57t-81 -18.5q-43 0 -76.5 18.5t-42.5 51.5q-22 -17 -57 -27t-72 -10q-58 0 -98.5 27t-40.5 66q0 26 18.5 48t50.5 35t70 13q93 -2 126 -28v17q0 69 -95 69q-27 0 -53 -10t-43 -21t-21 -14l-23 31
q0 2 21 17.5t57 28.5t85 13q74 0 116.5 -28t42.5 -72v-109q0 -27 16 -42t40 -15q22 0 43.5 13t35 37.5t13.5 59.5q0 105 -86.5 160.5t-226.5 55.5h-1q-141 0 -227.5 -54.5t-86.5 -161.5q0 -62 40.5 -106t111.5 -66.5t162 -22.5h1q46 0 86 6l10 -63q-47 -6 -96 -6h-1
q-173 0 -274 65t-101 195q0 80 47 138.5t132 89.5t196 31h1q111 0 194.5 -31zM467.5 166q24.5 10 36.5 24v42q-12 13 -36 20.5t-50 7.5q-42 0 -65.5 -15t-23.5 -37q0 -23 23 -37.5t66 -14.5q25 0 49.5 10z" />
    <glyph glyph-name="A" unicode="A" horiz-adv-x="864" 
d="M829 67v-68h-327v68h42q13 0 20.5 6.5t7.5 16.5q0 7 -5 15l-27 43h-278l-24 -40q-5 -8 -5 -16q0 -10 7 -17.5t18 -7.5h19v-68h-242v68h19q24 0 44.5 9.5t32.5 28.5l246 395h95l252 -395q12 -18 33 -28t44 -10h28zM493 224l-94 151l-91 -151h185z" />
    <glyph glyph-name="B" unicode="B" horiz-adv-x="805" 
d="M739 219.5q31 -37.5 31 -85.5q0 -59 -49 -96.5t-145 -37.5h-541v68h53q27 0 46 19t19 46v234q0 27 -19 46t-46 19h-53v68h517q91 0 136.5 -34.5t45.5 -88.5q0 -36 -20 -66.5t-52 -44.5q46 -9 77 -46.5zM282 293h206q53 0 80 19t27 52q0 34 -26 50t-81 16h-206v-137z
M582.5 202q-27.5 19 -83.5 19h-217v-145h217q55 0 83 17.5t28 52.5q0 37 -27.5 56z" />
    <glyph glyph-name="C" unicode="C" horiz-adv-x="843" 
d="M153 55q-118 65 -118 195t118 195t306 65h1q88 0 150.5 -15t103.5 -47l25 52h55v-186h-60q-47 124 -275 124q-123 0 -193 -45t-70 -141q0 -91 71.5 -139t191.5 -48q215 0 260 112h89q0 -42 -36.5 -85t-115 -72.5t-197.5 -29.5q-188 0 -306 65z" />
    <glyph glyph-name="D" unicode="D" horiz-adv-x="870" 
d="M495 500q75 0 154 -28.5t132.5 -85t53.5 -136.5t-53.5 -136.5t-132.5 -85t-154 -28.5h-460v68h53q26 0 45.5 19t19.5 46v234q0 27 -19.5 46t-45.5 19h-53v68h460zM467 75q54 0 104 20.5t81.5 61t31.5 96.5t-31.5 96t-81.5 60.5t-104 20.5h-185v-355h185z" />
    <glyph glyph-name="E" unicode="E" horiz-adv-x="805" 
d="M770 194v-194h-735v68h53q27 0 46 19t19 46v232q0 27 -19 46t-46 19h-53v70h716v-154h-59v25q0 24 -17 40.5t-41 16.5h-352v-130h145q22 0 38 16t16 38v6h58v-202h-58v8q0 22 -16 38t-38 16h-145v-143h328q42 0 71.5 29.5t29.5 70.5v19h59z" />
    <glyph glyph-name="F" unicode="F" horiz-adv-x="786" 
d="M751 500v-154h-59v27q0 24 -17 40.5t-41 16.5h-352v-137h145q22 0 38 16t16 38v6h58v-203h-58v8q0 22 -16 38t-38 16h-145v-79q0 -27 19 -46t46 -19h53v-68h-365v68h53q27 0 46 19t19 46v234q0 27 -19 46t-46 19h-53v68h716z" />
    <glyph glyph-name="G" unicode="G" horiz-adv-x="851" 
d="M816 263v-262h-59l-28 54q-98 -65 -270 -65q-188 0 -306 65t-118 195t118 195t306 65h1q87 0 144.5 -15t99.5 -47l25 52h55v-186h-60q-25 66 -93 95t-172 29q-123 0 -193 -45t-70 -141q0 -90 69 -138.5t174 -48.5q81 0 152 26t90 67v32h-199v73h334z" />
    <glyph glyph-name="H" unicode="H" horiz-adv-x="942" 
d="M854 432q-27 0 -46 -19t-19 -46v-234q0 -27 19 -46t46 -19h53v-68h-366v68h53q27 0 46.5 19t19.5 46v85h-378v-85q0 -27 19 -46t46 -19h53v-68h-365v68h53q27 0 46 19t19 46v234q0 27 -19 46t-46 19h-53v68h365v-68h-53q-27 0 -46 -19t-19 -46v-69h378v69q0 27 -19.5 46
t-46.5 19h-53v68h366v-68h-53z" />
    <glyph glyph-name="I" unicode="I" horiz-adv-x="435" 
d="M153 367q0 27 -19.5 46t-46.5 19h-52v68h365v-68h-53q-27 0 -46 -19t-19 -46v-234q0 -27 19 -46t46 -19h53v-68h-365v68h52q27 0 46.5 19t19.5 46v234z" />
    <glyph glyph-name="J" unicode="J" horiz-adv-x="518" 
d="M46 -16q36 -10 67 -10q53 0 88 35t35 124v234q0 27 -19 46t-46 19h-53v68h365v-68h-53q-27 0 -46 -19t-19 -46v-244q0 -77 -34 -128.5t-86.5 -76t-109.5 -24.5q-58 0 -100 24z" />
    <glyph glyph-name="K" unicode="K" horiz-adv-x="906" 
d="M842 68h29v-68h-349v68h41q11 0 18 7.5t7 17.5q0 11 -9 18l-144 122l-153 -94v-18q1 -25 19 -39t46 -14h33v-68h-345v68h53q27 0 46 19t19 46v234q0 27 -19 46t-46 19h-53v68h345v-68h-33q-27 0 -46 -19t-19 -46v-135l283 174q6 5 6 11t-4.5 10.5t-10.5 4.5h-49v68h325
v-68h-44q-29 0 -57 -17l-195 -120l239 -202q29 -25 67 -25z" />
    <glyph glyph-name="L" unicode="L" horiz-adv-x="781" 
d="M746 194v-194h-711v68h53q27 0 46 19t19 46v234q0 27 -19 46t-46 19h-53v68h365v-68h-53q-27 0 -46 -19t-19 -46v-292h304q42 0 71.5 29.5t29.5 70.5v19h59z" />
    <glyph glyph-name="M" unicode="M" horiz-adv-x="1038" 
d="M904 413q-19 -19 -19 -46v-234q0 -27 19 -46t46 -19h53v-68h-365v68h53q27 0 46 19t19 46v292l-203 -425h-134l-203 425v-302q0 -27 19 -46t46 -19h33v-58h-279v68h23q27 0 46 19t19 46v234q0 27 -19 46t-46 19h-23v68h295l177 -379l1 -2l181 381h314v-68h-53
q-27 0 -46 -19z" />
    <glyph glyph-name="N" unicode="N" horiz-adv-x="900" 
d="M865 500v-68h-23q-27 0 -46 -19t-19 -46v-367h-172l-369 425v-292q0 -27 19 -46t46 -19h53v-68h-319v68h43q27 0 46 19t19 46v234q0 27 -19 46t-46 19h-43v68h313l336 -387v254q0 27 -19.5 46t-46.5 19h-33v68h280z" />
    <glyph glyph-name="O" unicode="O" horiz-adv-x="919" 
d="M828 101q-56 -61 -152 -91t-216 -30h-1q-120 0 -216 30t-152 91t-56 149t56 149t152 91t216 30h1q120 0 216 -30t152 -91t56 -149t-56 -149zM654.5 104.5q73.5 49.5 73.5 147.5q0 97 -73.5 146.5t-195.5 49.5t-195 -49.5t-73 -146.5q0 -98 73 -147.5t195 -49.5
t195.5 49.5z" />
    <glyph glyph-name="P" unicode="P" horiz-adv-x="759" 
d="M501 500q71 0 121.5 -21t76 -57t25.5 -81q0 -44 -25.5 -80t-76 -57t-121.5 -21h-219v-50q0 -27 19 -46t46 -19h53v-68h-365v68h53q27 0 46 19t19 46v231q0 27 -19 46t-46 19h-53v71h466zM456 264q61 0 92.5 21.5t31.5 61.5q0 36 -32 58t-92 22h-174v-163h174z" />
    <glyph glyph-name="Q" unicode="Q" horiz-adv-x="988" 
d="M953 89v-9q0 -57 -34 -98t-99 -41q-38 0 -67.5 10t-58.5 43l-10 12t-10 11q-60 -17 -111 -27t-103 -10h-1q-120 0 -216 30t-152 91t-56 149t56 149t152 91t216 30h1q120 0 216 -30t152 -91t56 -149q0 -117 -100 -184l15 -13q18 -18 42 -18q19 0 31.5 12.5t12.5 35.5v6h68
zM270 98q2 29 22 58t64.5 49t115.5 20q60 0 100.5 -11.5t61.5 -24.5t63 -44q31 45 31 107q0 97 -73.5 146.5t-195.5 49.5t-195 -49.5t-73 -146.5q0 -99 79 -154zM625 91q-28 31 -67 48t-81 17q-37 0 -66 -8.5t-45 -22.5t-16 -28q0 -17 26 -29t78 -13h5q107 0 166 36z" />
    <glyph glyph-name="R" unicode="R" horiz-adv-x="871" 
d="M836 139v-9q0 -57 -34 -98t-99 -41q-41 0 -75.5 10t-63.5 43l-72 83q-29 33 -68 51t-82 18h-60v-63q0 -27 19 -46t46 -19h53v-68h-365v68h53q27 0 46 19t19 46v232q0 27 -19 46t-46 19h-53v70h477q103 0 157.5 -42.5t54.5 -109.5q0 -40 -20.5 -74.5t-61 -55.5t-96.5 -21
q41 -4 69 -22.5t76 -70.5l13 -14l-12 13q17 -17 38 -17q16 0 27 12t11 36v5h68zM580 349q0 37 -30 58t-87 21h-181v-161h181q117 0 117 82z" />
    <glyph glyph-name="S" unicode="S" horiz-adv-x="749" 
d="M236.5 5.5q-70.5 14.5 -122.5 40.5l-24 -45h-55v186h55q2 -14 35.5 -44t98 -55t154.5 -25q64 0 114.5 18t50.5 47q0 27 -34 40.5t-121 27.5q-157 25 -253 60.5t-96 102.5q0 77 74 114.5t198 37.5q105 0 171 -14t119 -41l24 45h55v-166h-55q1 9 -27.5 36t-88.5 49.5
t-151 22.5q-75 0 -110.5 -15t-35.5 -39q0 -21 45.5 -34.5t151.5 -30.5q134 -21 219.5 -62t85.5 -121q0 -84 -90.5 -117t-214.5 -33q-102 0 -172.5 14.5z" />
    <glyph glyph-name="T" unicode="T" horiz-adv-x="797" 
d="M762 336h-58v35q0 27 -19.5 42t-47.5 15h-174v-295q0 -27 19 -46t46 -19h53v-68h-365v68h52q27 0 46.5 19t19.5 46v295h-173q-28 0 -48.5 -19.5t-20.5 -47.5v-25h-57v164h727v-164z" />
    <glyph glyph-name="U" unicode="U" horiz-adv-x="888" 
d="M291 -0.5q-69 19.5 -108.5 74.5t-39.5 158v136q0 27 -19 46t-46 19h-43v68h345v-68h-43q-27 0 -46 -19t-19 -46v-156q0 -72 30 -107t74 -44t111 -9q84 0 134.5 36t50.5 116v164q0 27 -19 46t-46 19h-23v68h269v-68h-23q-27 0 -46 -19t-19 -46v-136q0 -144 -82.5 -198
t-217.5 -54q-105 0 -174 19.5z" />
    <glyph glyph-name="V" unicode="V" horiz-adv-x="863" 
d="M828 501v-58h-19q-23 0 -42.5 -11t-31.5 -31l-249 -402h-94l-256 403q-12 19 -31.5 30t-41.5 11h-28v58h326v-58h-42q-12 0 -20.5 -8.5t-8.5 -20.5q0 -8 4 -15l170 -274l165 274q4 7 4 15q0 12 -8 20.5t-20 8.5h-19v58h242z" />
    <glyph glyph-name="W" unicode="W" horiz-adv-x="1142" 
d="M1107 501v-68q-41 -3 -62 -11t-31 -31l-177 -401h-106l-136 326l-137 -326h-106l-216 412q-16 31 -73 31h-28v68h326v-68h-42q-13 0 -20.5 -9t-7.5 -21q0 -8 3 -14l123 -259l111 259h-2q3 6 3 14q0 12 -7.5 21t-19.5 9h-25v67h262v-67h-24q-12 0 -20.5 -8.5t-8.5 -20.5
q0 -8 4 -15l-2 1l113 -264l107 263q3 6 3 14q0 12 -7.5 21t-19.5 9h-19v68h242z" />
    <glyph glyph-name="X" unicode="X" horiz-adv-x="828" 
d="M793 68v-68h-302v68h39q7 0 11 4.5t4 9.5t-5 10l-137 106l-135 -106q-5 -4 -5 -10q0 -5 4.5 -9.5t10.5 -4.5h59v-68h-302v68h48q12 0 20.5 4.5t17 11t13.5 9.5l199 148l-189 153q-6 4 -17.5 14.5t-24 17t-27.5 6.5h-34v68h302v-68h-39q-6 0 -10.5 -4t-4.5 -10q0 -5 5 -10
l125 -100l131 100q5 5 5 10q0 6 -4 10t-11 4h-63v68h302v-68h-44q-13 0 -22 -5t-17.5 -11.5t-11.5 -8.5l-190 -141l196 -160q5 -4 16.5 -14.5t24.5 -17t28 -6.5h34z" />
    <glyph glyph-name="Y" unicode="Y" horiz-adv-x="828" 
d="M793 500v-68h-36q-16 0 -27 -6t-24 -19l-208 -217v-67q0 -9 9.5 -22.5t24.5 -23t32 -9.5h33v-68h-326v68h33q26 0 45.5 17t19.5 38v49l-231 222q-18 18 -32.5 28t-36.5 10h-34v68h302v-68h-39q-6 0 -10 -4t-4 -10t4 -10l153 -152l151 152q4 4 4 10t-4 10t-10 4h-33v68
h244z" />
    <glyph glyph-name="Z" unicode="Z" horiz-adv-x="818" 
d="M783 194v-194h-748v65l514 360h-366q-28 0 -48.5 -20t-20.5 -47v-27h-69v169h728v-75l-503 -350h343q42 0 71.5 29.5t29.5 70.5v19h69z" />
    <glyph glyph-name="bracketleft" unicode="[" horiz-adv-x="263" 
d="M137 511v-489h101v-52h-213v593h213v-52h-101z" />
    <glyph glyph-name="backslash" unicode="\" horiz-adv-x="422" 
d="M25 510h121l251 -525h-121z" />
    <glyph glyph-name="bracketright" unicode="]" horiz-adv-x="263" 
d="M238 -30h-213v52h101v489h-101v52h213v-593z" />
    <glyph glyph-name="asciicircum" unicode="^" horiz-adv-x="474" 
d="M347 250l-111 182l-109 -182h-102l153 250h116l155 -250h-102z" />
    <glyph glyph-name="underscore" unicode="_" horiz-adv-x="693" 
d="M25 63h643v-62h-643v62z" />
    <glyph glyph-name="grave" unicode="`" horiz-adv-x="272" 
d="M39 532q14 14 33 14q18 0 33 -13l112 -114l-26 -31l-142 70q-11 6 -17.5 17t-6.5 24q0 19 14 33z" />
    <glyph glyph-name="a" unicode="a" horiz-adv-x="636" 
d="M601 58v-58h-131q-24 0 -40.5 11.5t-24.5 30.5q-29 -24 -78 -38t-101 -14t-96 17t-69.5 46t-25.5 64q0 36 26 66t69.5 47.5t95.5 17.5q124 0 173 -37v23q0 96 -132 96q-40 0 -75.5 -14t-59.5 -30.5t-24 -18.5l-32 43q0 3 28.5 24t78 39t117.5 18t117.5 -18t75.5 -50
t26 -71v-149q0 -19 16 -32t38 -13h28zM348 64q34 14 51 35v55q-16 18 -50 28.5t-71 10.5q-58 0 -89 -20t-31 -51q0 -32 31 -52t89 -20q36 0 70 14z" />
    <glyph glyph-name="b" unicode="b" horiz-adv-x="734" 
d="M620.5 337.5q78.5 -51.5 78.5 -148.5q0 -96 -78.5 -147.5t-200.5 -51.5h-1q-100 0 -184 60v-50h-200v58h36q19 0 32 12.5t13 31.5v321q0 18 -13 31t-32 13h-36v58h201l-1 -193q36 27 83 42t101 15h1q122 0 200.5 -51.5zM527 93.5q46 33.5 46 100.5q0 65 -46 98t-124 33
q-77 0 -123.5 -33t-46.5 -98q0 -66 46.5 -100t123.5 -34q78 0 124 33.5z" />
    <glyph glyph-name="c" unicode="c" horiz-adv-x="666" 
d="M126 31q-91 51 -91 153t91 153t236 51q135 0 196 -48l20 31h42v-137h-46q-35 95 -212 95q-86 0 -140 -36t-54 -107t54 -109t140 -38q165 0 200 88h69q0 -33 -28 -67t-89 -57t-152 -23q-145 0 -236 51z" />
    <glyph glyph-name="d" unicode="d" horiz-adv-x="734" 
d="M699 58v-58h-200v42q-72 -52 -184 -52q-123 0 -201.5 51.5t-78.5 147.5q0 97 78.5 148.5t201.5 51.5q112 0 184 -53v85q0 19 -13.5 32.5t-32.5 13.5h-35v58h201v-423q0 -19 13 -31.5t31 -12.5h36zM453 93.5q46 33.5 46 100.5q0 65 -46 98t-124 33q-77 0 -123.5 -33
t-46.5 -98q0 -66 46.5 -100t123.5 -34q78 0 124 33.5z" />
    <glyph glyph-name="e" unicode="e" horiz-adv-x="670" 
d="M437.5 60q41.5 16 59.5 62h134q0 -25 -31 -58.5t-99.5 -58.5t-174.5 -25q-76 0 -142.5 22t-107.5 68t-41 114q0 98 85 151t219 53q137 0 216.5 -57t79.5 -166h-466q8 -58 55.5 -89.5t106.5 -31.5q65 0 106.5 16zM235 303.5q-45 -24.5 -60 -72.5h321q-14 48 -57.5 72.5
t-107.5 24.5q-51 0 -96 -24.5z" />
    <glyph glyph-name="f" unicode="f" horiz-adv-x="376" 
d="M248 470q-17 -17 -17 -46v-53h90v-58h-90v-210q0 -19 13 -32t32 -13h34v-58h-279v58h34q19 0 32.5 13t13.5 32v210h-80v58h80v39q0 62 36.5 101.5t109.5 39.5q32 0 53.5 -8.5t30.5 -17.5v-57q-12 10 -24 14.5t-28 4.5q-24 0 -41 -17z" />
    <glyph glyph-name="g" unicode="g" horiz-adv-x="696" 
d="M154 -176.5q-56 23.5 -84 50.5t-28 32l64 47q0 -4 21 -23.5t63 -36.5t105 -17q89 0 133 34.5t44 98.5l1 30q-74 -57 -174 -57h-1q-115 0 -189 51.5t-74 148.5q0 96 74 147.5t189 51.5h1q94 0 174 -60v50h188v-58h-34q-17 0 -29.5 -13t-12.5 -32v-216q0 -129 -73.5 -190.5
t-217.5 -61.5q-84 0 -140 23.5zM430.5 84q43.5 33 43.5 98q3 127 -160 134q-70 0 -112.5 -34t-42.5 -100q0 -65 42.5 -98t112.5 -33q73 0 116.5 33z" />
    <glyph glyph-name="h" unicode="h" horiz-adv-x="717" 
d="M682 58v-58h-282v58h36q19 0 32 13t13 31v118q0 41 -32.5 67.5t-90.5 26.5q-41 0 -72 -19.5t-50 -41.5v-151q0 -18 13 -31t31 -13h37v-58h-282v58h36q19 0 32 13t13 31v320q0 19 -13 32t-32 13h-36v58h201v-216q29 31 71.5 54t98.5 23q60 0 104 -22t67.5 -59t23.5 -80
v-123q0 -18 13 -31t31 -13h37z" />
    <glyph glyph-name="i" unicode="i" 
d="M111 438.5q-22 21.5 -22 51.5q0 29 22 50.5t51 21.5t51 -21.5t22 -50.5q0 -30 -22 -51.5t-51 -21.5t-51 21.5zM249 71q13 -13 32 -13h35v-58h-281v58h35q19 0 32.5 13t13.5 32v165q0 19 -13.5 32.5t-32.5 13.5h-25v57h191v-268q0 -19 13 -32z" />
    <glyph glyph-name="j" unicode="j" horiz-adv-x="299" 
d="M133 438.5q-22 21.5 -22 51.5q0 29 22 50.5t51 21.5t51 -21.5t22 -50.5q0 -30 -22 -51.5t-51 -21.5t-51 21.5zM257 63q0 -77 -31 -128.5t-79 -75.5t-101 -25l-11 60q45 4 73.5 40t28.5 119v215q0 19 -13 32t-32 13h-35v58h200v-308z" />
    <glyph glyph-name="k" unicode="k" horiz-adv-x="722" 
d="M652 58h35v-58h-281v58h16q8 0 13.5 5.5t5.5 12.5t-6 13l-85 83l-114 -74q0 -16 12 -28t28 -12h41v-58h-282v58h35q19 0 32.5 13t13.5 32v294q0 19 -13.5 32t-32.5 13h-35v58h201v-319l150 104q7 4 7 12q0 6 -4 10.5t-11 4.5h-38v57h282v-57h-31q-24 0 -45 -13l-112 -75
l160 -143q23 -23 58 -23z" />
    <glyph glyph-name="l" unicode="l" 
d="M249 71q13 -13 32 -13h35v-58h-281v58h35q19 0 32.5 13t13.5 32v319q0 19 -13.5 32.5t-32.5 13.5h-35v57h201v-422q0 -19 13 -32z" />
    <glyph glyph-name="m" unicode="m" horiz-adv-x="1061" 
d="M1026 58v-58h-281v58h31q18 0 30.5 12.5t12.5 30.5v119q0 41 -31.5 67.5t-86.5 26.5q-52 0 -81 -29t-29 -66v-118q0 -18 12.5 -30.5t30.5 -12.5h38v-58h-282v58h38q18 0 30.5 12.5t12.5 30.5v119q0 41 -33 67.5t-90 26.5q-34 0 -59 -16.5t-53 -43.5v-153
q0 -18 12.5 -30.5t30.5 -12.5h38v-58h-282v58h38q17 0 30 12.5t13 30.5v169q0 18 -13 31t-30 13h-38v57h201v-42q26 25 66.5 41t93.5 16q57 0 99.5 -19.5t66.5 -53.5q24 31 69.5 52t105.5 21t106 -22t71 -59t25 -80v-124q0 -18 12.5 -30.5t30.5 -12.5h44z" />
    <glyph glyph-name="n" unicode="n" horiz-adv-x="717" 
d="M682 58v-58h-282v58h36q19 0 32 13t13 31v118q0 41 -32.5 67.5t-90.5 26.5q-41 0 -69 -21.5t-53 -49.5v-141q0 -18 13 -31t31 -13h37v-58h-282v58h36q19 0 32 13t13 31v166q0 19 -13 32t-32 13h-36v58h201v-52q26 28 69.5 47.5t100.5 19.5q60 0 104 -22t67.5 -59
t23.5 -80v-123q0 -18 13 -31t31 -13h37z" />
    <glyph glyph-name="o" unicode="o" horiz-adv-x="678" 
d="M120.5 32.5q-85.5 52.5 -85.5 151.5t85.5 151.5t218.5 52.5t218.5 -52.5t85.5 -151.5t-85.5 -151.5t-218.5 -52.5t-218.5 52.5zM464 75.5q47 37.5 47 110.5q0 72 -47 109t-125 37t-125 -37t-47 -109q0 -73 47 -110.5t125 -37.5t125 37.5z" />
    <glyph glyph-name="p" unicode="p" horiz-adv-x="734" 
d="M620.5 329.5q78.5 -51.5 78.5 -147.5q0 -97 -78.5 -148.5t-200.5 -51.5h-1q-54 0 -101 15t-83 42l1 -89q0 -19 13.5 -32.5t32.5 -13.5h35v-58h-282v58h36q19 0 32 13t13 31v320q0 19 -13 32t-32 13h-36v58h200v-50q84 60 184 60h1q122 0 200.5 -51.5zM527 84q46 33 46 98
q0 67 -46 100.5t-124 33.5q-80 -1 -125.5 -34t-44.5 -100q0 -65 46.5 -98t123.5 -33q78 0 124 33z" />
    <glyph glyph-name="q" unicode="q" horiz-adv-x="734" 
d="M315 381q100 0 184 -60v50h200v-58h-36q-19 0 -32 -13t-13 -32v-320q0 -18 13 -31t32 -13h36v-58h-282v58h35q19 0 32.5 13.5t13.5 32.5l1 89q-36 -27 -83 -42t-101 -15h-1q-122 0 -200.5 51.5t-78.5 148.5q0 96 78.5 147.5t200.5 51.5h1zM455 84.5q46 33.5 46 99.5
t-45 98.5t-125 33.5q-78 0 -124 -33.5t-46 -100.5q0 -65 46 -98t124 -33t124 33.5z" />
    <glyph glyph-name="r" unicode="r" horiz-adv-x="481" 
d="M446 262h-33q-2 2 -8.5 9t-20 13.5t-30.5 6.5q-33 0 -59.5 -13t-42.5 -28.5t-16 -17.5v-131q0 -18 12.5 -30.5t30.5 -12.5h38v-58h-282v58h37q18 0 31 12.5t13 30.5v169q0 18 -13 31t-31 13h-37v57h201v-71q0 3 16.5 23.5t43.5 38t61 17.5q27 0 47 -6.5t31 -14.5t11 -9
v-87z" />
    <glyph glyph-name="s" unicode="s" horiz-adv-x="574" 
d="M94 34l-18 -34h-41v139h41q2 -10 26.5 -32t72 -40t114.5 -18q46 0 78.5 11.5t32.5 29.5q0 13 -9.5 20t-29.5 11.5t-65 11.5q-83 13 -133 25t-87.5 38t-37.5 69q0 54 60.5 83.5t168.5 29.5q106 0 188 -40l17 33h41v-123h-41q1 6 -20 25.5t-65.5 35.5t-112.5 16
q-55 0 -77.5 -9.5t-22.5 -27.5q0 -16 30 -24.5t108 -19.5q99 -14 163 -42.5t64 -83.5q0 -68 -72.5 -96.5t-179.5 -28.5q-111 0 -193 41z" />
    <glyph glyph-name="t" unicode="t" horiz-adv-x="380" 
d="M214 313v-216q0 -27 14.5 -35t43.5 -8q16 0 28 4.5t24 14.5v-57q-9 -9 -30.5 -17.5t-53.5 -8.5q-146 0 -146 121v202h-57v58q56 0 86.5 35.5t30.5 93.5h60v-129h113v-58h-113z" />
    <glyph glyph-name="u" unicode="u" horiz-adv-x="712" 
d="M677 58v-58h-201v57q-67 -72 -165 -72q-59 0 -103.5 24.5t-68 63.5t-23.5 83v113q0 18 -13 31t-31 13h-37v58h201v-210q0 -42 33 -73t90 -31q37 0 63 20t38.5 35.5t15.5 18.5v138q0 18 -13 31t-31 13h-37v58h201v-102v-166q0 -19 13 -32t32 -13h36z" />
    <glyph glyph-name="v" unicode="v" horiz-adv-x="705" 
d="M670 371v-58h-19q-23 0 -42.5 -11t-31.5 -31l-171 -271h-94l-176 272q-12 19 -31.5 30t-41.5 11h-28v58h326v-58h-52q-12 0 -20.5 -8.5t-8.5 -20.5q0 -8 4 -15l100 -159l96 159q4 7 4 15q0 12 -8 20.5t-20 8.5h-28v58h242z" />
    <glyph glyph-name="w" unicode="w" horiz-adv-x="935" 
d="M900 372v-59q-36 -3 -47.5 -10t-25.5 -32l-148 -271h-94l-109 196l-112 -196h-87l-161 282q-10 18 -24.5 24.5t-38.5 6.5h-18v59h286v-59h-22q-13 0 -20.5 -9t-7.5 -22q0 -7 3 -13l74 -155l85 155h-2q3 6 3 14q0 12 -7.5 21t-19.5 9h-25v58h252v-58h-24q-12 0 -20.5 -8.5
t-8.5 -20.5q0 -8 4 -15l-2 1l78 -165l82 164q3 6 3 14q0 12 -7.5 21t-19.5 9h-19v59h200z" />
    <glyph glyph-name="x" unicode="x" horiz-adv-x="636" 
d="M608 62v-62h-273v62h23q7 0 11 5t4 11q0 5 -5 10l-74 59l-66 -59q-5 -4 -5 -11q0 -6 4.5 -10.5t10.5 -4.5h32v-62h-230v62h28q15 0 25.5 6.5t25.5 20.5l111 99l-106 83q-4 3 -18 14.5t-27.5 18.5t-23.5 7h-14v60h257v-60h-19q-6 0 -10.5 -5t-4.5 -11q0 -5 5 -10l72 -55
l61 55q6 6 6 12q0 5 -4.5 9.5t-11.5 4.5h-36v60h237v-60h-36q-15 0 -25.5 -6.5t-25.5 -20.5l-105 -96l111 -88q21 -16 40.5 -27t41.5 -11h14z" />
    <glyph glyph-name="y" unicode="y" horiz-adv-x="705" 
d="M670 371v-58h-19q-23 0 -42.5 -11t-31.5 -31l-204 -339q-26 -40 -44.5 -62.5t-48 -36.5t-74.5 -14q-36 0 -60.5 12t-36.5 25t-12 16l58 48q2 -2 9.5 -9t20.5 -13.5t29 -6.5t26.5 5t19 15t17.5 22l31 47l-172 292q-12 19 -31.5 30t-41.5 11h-28v58h326v-58h-52
q-12 0 -20.5 -8.5t-8.5 -20.5q0 -8 4 -15l95 -163l101 163q4 7 4 15q0 12 -8 20.5t-20 8.5h-28v58h242z" />
    <glyph glyph-name="z" unicode="z" horiz-adv-x="631" 
d="M579 306l-337 -243l247 1q20 0 34 13.5t14 33.5v23h59v-134h-561v65l346 249h-231q-20 0 -34 -14t-14 -34v-29h-59v134h536v-65z" />
    <glyph glyph-name="braceleft" unicode="{" horiz-adv-x="295" 
d="M183.5 300q-19.5 -25 -48.5 -35q68 -24 68 -107v-78q0 -30 20 -48.5t47 -18.5q-1 -4 -0.5 -11.5t0.5 -11.5h-114q-27 0 -47 18t-20 48v122q0 30 -18.5 51.5t-44.5 34.5q-1 0 -1 0.5t1 0.5q63 35 63 86v121q0 30 20 48.5t47 18.5h114q0 -4 -0.5 -12t0.5 -12
q-28 0 -47.5 -18.5t-19.5 -48.5v-77q0 -46 -19.5 -71z" />
    <glyph glyph-name="bar" unicode="|" horiz-adv-x="137" 
d="M25 563h87v-703h-87v703z" />
    <glyph glyph-name="braceright" unicode="}" horiz-adv-x="295" 
d="M92 448q0 30 -19.5 48.5t-47.5 18.5q1 4 0.5 12t-0.5 12h114q27 0 47 -18.5t20 -48.5v-121q0 -51 63 -86q1 0 1 -0.5t-1 -0.5q-26 -13 -44.5 -34.5t-18.5 -51.5v-122q0 -30 -20 -48t-47 -18h-114q0 4 0.5 11.5t-0.5 11.5q27 0 47 18.5t20 48.5v78q0 83 68 107
q-29 10 -48.5 35t-19.5 71v77z" />
    <glyph glyph-name="asciitilde" unicode="~" horiz-adv-x="481" 
d="M145 305q25 0 49 -7t57 -20q5 -2 22 -8t30 -9t23 -3q46 0 62.5 18t16.5 36h51q0 -58 -24 -98.5t-96 -40.5q-25 0 -50 7.5t-56 20.5q-28 11 -44 16t-31 5q-46 0 -62.5 -18.5t-16.5 -36.5h-51q0 138 120 138z" />
    <glyph glyph-name="exclamdown" unicode="&#xa1;" horiz-adv-x="217" 
d="M155.5 478q21.5 -22 21.5 -53q0 -30 -22 -52.5t-52 -22.5q-35 0 -55.5 21.5t-20.5 53.5t21.5 53.5t54.5 21.5q31 0 52.5 -22zM149.5 236.5q14.5 -42.5 28.5 -93t14 -80.5q0 -38 -24 -66t-61 -28q-36 0 -59 28t-23 66q0 30 12 80.5t24.5 93t16.5 54.5h52q5 -12 19.5 -54.5
z" />
    <glyph glyph-name="sterling" unicode="&#xa3;" horiz-adv-x="781" 
d="M683 194h59v-194h-711v68h53q27 0 46 19t19 46v70h-114l-1 72h115v32q0 68 41 116t113.5 72.5t166.5 24.5q98 0 159 -22t87 -54.5t26 -65.5v-1v0q0 -33 -22.5 -56t-55.5 -23t-56 23t-23 56q0 35 26 58q-43 20 -116 20q-76 0 -125 -24t-70.5 -58t-21.5 -66v-32h203l1 -72
h-204v-128h304q42 0 71.5 29.5t29.5 70.5v19z" />
    <glyph glyph-name="acute" unicode="&#xb4;" horiz-adv-x="272" 
d="M240.5 475q-6.5 -11 -17.5 -17l-142 -70l-26 31l112 114q15 13 33 13q19 0 33 -14t14 -33q0 -13 -6.5 -24z" />
    <glyph glyph-name="questiondown" unicode="&#xbf;" horiz-adv-x="519" 
d="M215.5 371.5q-20.5 21.5 -20.5 53.5t21.5 53.5t54.5 21.5q31 0 52.5 -22t21.5 -53q0 -30 -22 -52.5t-52 -22.5q-35 0 -55.5 21.5zM474 180.5q20 -20.5 20 -49.5q0 -43 -33.5 -79.5t-87.5 -57.5t-112 -21q-83 0 -135.5 20t-76.5 51t-24 66q0 41 31.5 68t89.5 55
q44 22 65 38t21 37h81q0 -33 -19 -56t-57 -53q-33 -25 -49.5 -44.5t-16.5 -44.5q0 -34 24 -59.5t76 -25.5q56 0 87 17t40 31q-19 1 -31 18.5t-12 39.5q0 30 20.5 50t50.5 20q28 0 48 -20.5z" />
    <glyph glyph-name="Agrave" unicode="&#xc0;" horiz-adv-x="864" 
d="M829 67v-68h-327v68h42q13 0 20.5 6.5t7.5 16.5q0 7 -5 15l-27 43h-278l-24 -40q-5 -8 -5 -16q0 -10 7 -17.5t18 -7.5h19v-68h-242v68h19q24 0 44.5 9.5t32.5 28.5l246 395h95l252 -395q12 -18 33 -28t44 -10h28zM493 224l-94 151l-91 -151h185zM309 707q14 14 33 14
q18 0 33 -13l112 -114l-26 -31l-142 70q-11 6 -17.5 17t-6.5 24q0 19 14 33z" />
    <glyph glyph-name="Aacute" unicode="&#xc1;" horiz-adv-x="864" 
d="M829 67v-68h-327v68h42q13 0 20.5 6.5t7.5 16.5q0 7 -5 15l-27 43h-278l-24 -40q-5 -8 -5 -16q0 -10 7 -17.5t18 -7.5h19v-68h-242v68h19q24 0 44.5 9.5t32.5 28.5l246 395h95l252 -395q12 -18 33 -28t44 -10h28zM493 224l-94 151l-91 -151h185zM510.5 650
q-6.5 -11 -17.5 -17l-142 -70l-26 31l112 114q15 13 33 13q19 0 33 -14t14 -33q0 -13 -6.5 -24z" />
    <glyph glyph-name="Egrave" unicode="&#xc8;" horiz-adv-x="805" 
d="M770 194v-194h-735v68h53q27 0 46 19t19 46v232q0 27 -19 46t-46 19h-53v70h716v-154h-59v25q0 24 -17 40.5t-41 16.5h-352v-130h145q22 0 38 16t16 38v6h58v-202h-58v8q0 22 -16 38t-38 16h-145v-143h328q42 0 71.5 29.5t29.5 70.5v19h59zM314 707q14 14 33 14
q18 0 33 -13l112 -114l-26 -31l-142 70q-11 6 -17.5 17t-6.5 24q0 19 14 33z" />
    <glyph glyph-name="Eacute" unicode="&#xc9;" horiz-adv-x="805" 
d="M770 194v-194h-735v68h53q27 0 46 19t19 46v232q0 27 -19 46t-46 19h-53v70h716v-154h-59v25q0 24 -17 40.5t-41 16.5h-352v-130h145q22 0 38 16t16 38v6h58v-202h-58v8q0 22 -16 38t-38 16h-145v-143h328q42 0 71.5 29.5t29.5 70.5v19h59zM515.5 650q-6.5 -11 -17.5 -17
l-142 -70l-26 31l112 114q15 13 33 13q19 0 33 -14t14 -33q0 -13 -6.5 -24z" />
    <glyph glyph-name="Igrave" unicode="&#xcc;" horiz-adv-x="435" 
d="M153 367q0 27 -19.5 46t-46.5 19h-52v68h365v-68h-53q-27 0 -46 -19t-19 -46v-234q0 -27 19 -46t46 -19h53v-68h-365v68h52q27 0 46.5 19t19.5 46v234zM104 707q14 14 33 14q18 0 33 -13l112 -114l-26 -31l-142 70q-11 6 -17.5 17t-6.5 24q0 19 14 33z" />
    <glyph glyph-name="Iacute" unicode="&#xcd;" horiz-adv-x="435" 
d="M153 367q0 27 -19.5 46t-46.5 19h-52v68h365v-68h-53q-27 0 -46 -19t-19 -46v-234q0 -27 19 -46t46 -19h53v-68h-365v68h52q27 0 46.5 19t19.5 46v234zM320.5 650q-6.5 -11 -17.5 -17l-142 -70l-26 31l112 114q15 13 33 13q19 0 33 -14t14 -33q0 -13 -6.5 -24z" />
    <glyph glyph-name="Ograve" unicode="&#xd2;" horiz-adv-x="919" 
d="M828 101q-56 -61 -152 -91t-216 -30h-1q-120 0 -216 30t-152 91t-56 149t56 149t152 91t216 30h1q120 0 216 -30t152 -91t56 -149t-56 -149zM654.5 104.5q73.5 49.5 73.5 147.5q0 97 -73.5 146.5t-195.5 49.5t-195 -49.5t-73 -146.5q0 -98 73 -147.5t195 -49.5
t195.5 49.5zM364 707q14 14 33 14q18 0 33 -13l112 -114l-26 -31l-142 70q-11 6 -17.5 17t-6.5 24q0 19 14 33z" />
    <glyph glyph-name="Oacute" unicode="&#xd3;" horiz-adv-x="919" 
d="M828 101q-56 -61 -152 -91t-216 -30h-1q-120 0 -216 30t-152 91t-56 149t56 149t152 91t216 30h1q120 0 216 -30t152 -91t56 -149t-56 -149zM654.5 104.5q73.5 49.5 73.5 147.5q0 97 -73.5 146.5t-195.5 49.5t-195 -49.5t-73 -146.5q0 -98 73 -147.5t195 -49.5
t195.5 49.5zM565.5 650q-6.5 -11 -17.5 -17l-142 -70l-26 31l112 114q15 13 33 13q19 0 33 -14t14 -33q0 -13 -6.5 -24z" />
    <glyph glyph-name="Ugrave" unicode="&#xd9;" horiz-adv-x="888" 
d="M291 -0.5q-69 19.5 -108.5 74.5t-39.5 158v136q0 27 -19 46t-46 19h-43v68h345v-68h-43q-27 0 -46 -19t-19 -46v-156q0 -72 30 -107t74 -44t111 -9q84 0 134.5 36t50.5 116v164q0 27 -19 46t-46 19h-23v68h269v-68h-23q-27 0 -46 -19t-19 -46v-136q0 -144 -82.5 -198
t-217.5 -54q-105 0 -174 19.5zM354 707q14 14 33 14q18 0 33 -13l112 -114l-26 -31l-142 70q-11 6 -17.5 17t-6.5 24q0 19 14 33z" />
    <glyph glyph-name="Uacute" unicode="&#xda;" horiz-adv-x="888" 
d="M291 -0.5q-69 19.5 -108.5 74.5t-39.5 158v136q0 27 -19 46t-46 19h-43v68h345v-68h-43q-27 0 -46 -19t-19 -46v-156q0 -72 30 -107t74 -44t111 -9q84 0 134.5 36t50.5 116v164q0 27 -19 46t-46 19h-23v68h269v-68h-23q-27 0 -46 -19t-19 -46v-136q0 -144 -82.5 -198
t-217.5 -54q-105 0 -174 19.5zM555.5 650q-6.5 -11 -17.5 -17l-142 -70l-26 31l112 114q15 13 33 13q19 0 33 -14t14 -33q0 -13 -6.5 -24z" />
    <glyph glyph-name="Yacute" unicode="&#xdd;" horiz-adv-x="828" 
d="M793 500v-68h-36q-16 0 -27 -6t-24 -19l-208 -217v-67q0 -9 9.5 -22.5t24.5 -23t32 -9.5h33v-68h-326v68h33q26 0 45.5 17t19.5 38v49l-231 222q-18 18 -32.5 28t-36.5 10h-34v68h302v-68h-39q-6 0 -10 -4t-4 -10t4 -10l153 -152l151 152q4 4 4 10t-4 10t-10 4h-33v68
h244zM535.5 650q-6.5 -11 -17.5 -17l-142 -70l-26 31l112 114q15 13 33 13q19 0 33 -14t14 -33q0 -13 -6.5 -24z" />
    <glyph glyph-name="agrave" unicode="&#xe0;" horiz-adv-x="636" 
d="M601 58v-58h-131q-24 0 -40.5 11.5t-24.5 30.5q-29 -24 -78 -38t-101 -14t-96 17t-69.5 46t-25.5 64q0 36 26 66t69.5 47.5t95.5 17.5q124 0 173 -37v23q0 96 -132 96q-40 0 -75.5 -14t-59.5 -30.5t-24 -18.5l-32 43q0 3 28.5 24t78 39t117.5 18t117.5 -18t75.5 -50
t26 -71v-149q0 -19 16 -32t38 -13h28zM348 64q34 14 51 35v55q-16 18 -50 28.5t-71 10.5q-58 0 -89 -20t-31 -51q0 -32 31 -52t89 -20q36 0 70 14zM201 582q14 14 33 14q18 0 33 -13l112 -114l-26 -31l-142 70q-11 6 -17.5 17t-6.5 24q0 19 14 33z" />
    <glyph glyph-name="aacute" unicode="&#xe1;" horiz-adv-x="636" 
d="M601 58v-58h-131q-24 0 -40.5 11.5t-24.5 30.5q-29 -24 -78 -38t-101 -14t-96 17t-69.5 46t-25.5 64q0 36 26 66t69.5 47.5t95.5 17.5q124 0 173 -37v23q0 96 -132 96q-40 0 -75.5 -14t-59.5 -30.5t-24 -18.5l-32 43q0 3 28.5 24t78 39t117.5 18t117.5 -18t75.5 -50
t26 -71v-149q0 -19 16 -32t38 -13h28zM348 64q34 14 51 35v55q-16 18 -50 28.5t-71 10.5q-58 0 -89 -20t-31 -51q0 -32 31 -52t89 -20q36 0 70 14zM362.5 525q-6.5 -11 -17.5 -17l-142 -70l-26 31l112 114q15 13 33 13q19 0 33 -14t14 -33q0 -13 -6.5 -24z" />
    <glyph glyph-name="egrave" unicode="&#xe8;" horiz-adv-x="670" 
d="M437.5 60q41.5 16 59.5 62h134q0 -25 -31 -58.5t-99.5 -58.5t-174.5 -25q-76 0 -142.5 22t-107.5 68t-41 114q0 98 85 151t219 53q137 0 216.5 -57t79.5 -166h-466q8 -58 55.5 -89.5t106.5 -31.5q65 0 106.5 16zM235 303.5q-45 -24.5 -60 -72.5h321q-14 48 -57.5 72.5
t-107.5 24.5q-51 0 -96 -24.5zM222 582q14 14 33 14q18 0 33 -13l112 -114l-26 -31l-142 70q-11 6 -17.5 17t-6.5 24q0 19 14 33z" />
    <glyph glyph-name="eacute" unicode="&#xe9;" horiz-adv-x="670" 
d="M437.5 60q41.5 16 59.5 62h134q0 -25 -31 -58.5t-99.5 -58.5t-174.5 -25q-76 0 -142.5 22t-107.5 68t-41 114q0 98 85 151t219 53q137 0 216.5 -57t79.5 -166h-466q8 -58 55.5 -89.5t106.5 -31.5q65 0 106.5 16zM235 303.5q-45 -24.5 -60 -72.5h321q-14 48 -57.5 72.5
t-107.5 24.5q-51 0 -96 -24.5zM456.5 525q-6.5 -11 -17.5 -17l-142 -70l-26 31l112 114q15 13 33 13q19 0 33 -14t14 -33q0 -13 -6.5 -24z" />
    <glyph glyph-name="igrave" unicode="&#xec;" 
d="M46 582q14 14 33 14q18 0 33 -13l112 -114l-26 -31l-142 70q-11 6 -17.5 17t-6.5 24q0 19 14 33zM249 71q13 -13 32 -13h35v-58h-281v58h35q19 0 32.5 13t13.5 32v165q0 19 -13.5 32.5t-32.5 13.5h-25v57h191v-268q0 -19 13 -32z" />
    <glyph glyph-name="iacute" unicode="&#xed;" 
d="M260.5 525q-6.5 -11 -17.5 -17l-142 -70l-26 31l112 114q15 13 33 13q19 0 33 -14t14 -33q0 -13 -6.5 -24zM249 71q13 -13 32 -13h35v-58h-281v58h35q19 0 32.5 13t13.5 32v165q0 19 -13.5 32.5t-32.5 13.5h-25v57h191v-268q0 -19 13 -32z" />
    <glyph glyph-name="ograve" unicode="&#xf2;" horiz-adv-x="678" 
d="M120.5 32.5q-85.5 52.5 -85.5 151.5t85.5 151.5t218.5 52.5t218.5 -52.5t85.5 -151.5t-85.5 -151.5t-218.5 -52.5t-218.5 52.5zM464 75.5q47 37.5 47 110.5q0 72 -47 109t-125 37t-125 -37t-47 -109q0 -73 47 -110.5t125 -37.5t125 37.5zM229 582q14 14 33 14
q18 0 33 -13l112 -114l-26 -31l-142 70q-11 6 -17.5 17t-6.5 24q0 19 14 33z" />
    <glyph glyph-name="oacute" unicode="&#xf3;" horiz-adv-x="678" 
d="M120.5 32.5q-85.5 52.5 -85.5 151.5t85.5 151.5t218.5 52.5t218.5 -52.5t85.5 -151.5t-85.5 -151.5t-218.5 -52.5t-218.5 52.5zM464 75.5q47 37.5 47 110.5q0 72 -47 109t-125 37t-125 -37t-47 -109q0 -73 47 -110.5t125 -37.5t125 37.5zM473.5 515q-6.5 -11 -17.5 -17
l-142 -70l-26 31l112 114q15 13 33 13q19 0 33 -14t14 -33q0 -13 -6.5 -24z" />
    <glyph glyph-name="ugrave" unicode="&#xf9;" horiz-adv-x="717" 
d="M677 58v-58h-201v57q-67 -72 -165 -72q-59 0 -103.5 24.5t-68 63.5t-23.5 83v113q0 18 -13 31t-31 13h-37v58h201v-210q0 -42 33 -73t90 -31q37 0 63 20t38.5 35.5t15.5 18.5v138q0 18 -13 31t-31 13h-37v58h201v-102v-166q0 -19 13 -32t32 -13h36zM229 582q14 14 33 14
q18 0 33 -13l112 -114l-26 -31l-142 70q-11 6 -17.5 17t-6.5 24q0 19 14 33z" />
    <glyph glyph-name="uacute" unicode="&#xfa;" horiz-adv-x="717" 
d="M677 58v-58h-201v57q-67 -72 -165 -72q-59 0 -103.5 24.5t-68 63.5t-23.5 83v113q0 18 -13 31t-31 13h-37v58h201v-210q0 -42 33 -73t90 -31q37 0 63 20t38.5 35.5t15.5 18.5v138q0 18 -13 31t-31 13h-37v58h201v-102v-166q0 -19 13 -32t32 -13h36zM454.5 525
q-6.5 -11 -17.5 -17l-142 -70l-26 31l112 114q15 13 33 13q19 0 33 -14t14 -33q0 -13 -6.5 -24z" />
    <glyph glyph-name="yacute" unicode="&#xfd;" horiz-adv-x="705" 
d="M670 371v-58h-19q-23 0 -42.5 -11t-31.5 -31l-204 -339q-26 -40 -44.5 -62.5t-48 -36.5t-74.5 -14q-36 0 -60.5 12t-36.5 25t-12 16l58 48q2 -2 9.5 -9t20.5 -13.5t29 -6.5t26.5 5t19 15t17.5 22l31 47l-172 292q-12 19 -31.5 30t-41.5 11h-28v58h326v-58h-52
q-12 0 -20.5 -8.5t-8.5 -20.5q0 -8 4 -15l95 -163l101 163q4 7 4 15q0 12 -8 20.5t-20 8.5h-28v58h242zM480.5 525q-6.5 -11 -17.5 -17l-142 -70l-26 31l112 114q15 13 33 13q19 0 33 -14t14 -33q0 -13 -6.5 -24z" />
    <glyph glyph-name="Cacute" unicode="&#x106;" horiz-adv-x="843" 
d="M153 55q-118 65 -118 195t118 195t306 65h1q88 0 150.5 -15t103.5 -47l25 52h55v-186h-60q-47 124 -275 124q-123 0 -193 -45t-70 -141q0 -91 71.5 -139t191.5 -48q215 0 260 112h89q0 -42 -36.5 -85t-115 -72.5t-197.5 -29.5q-188 0 -306 65zM565.5 650
q-6.5 -11 -17.5 -17l-142 -70l-26 31l112 114q15 13 33 13q19 0 33 -14t14 -33q0 -13 -6.5 -24z" />
    <glyph glyph-name="cacute" unicode="&#x107;" horiz-adv-x="666" 
d="M126 31q-91 51 -91 153t91 153t236 51q135 0 196 -48l20 31h42v-137h-46q-35 95 -212 95q-86 0 -140 -36t-54 -107t54 -109t140 -38q165 0 200 88h69q0 -33 -28 -67t-89 -57t-152 -23q-145 0 -236 51zM449.5 515q-6.5 -11 -17.5 -17l-142 -70l-26 31l112 114q15 13 33 13
q19 0 33 -14t14 -33q0 -13 -6.5 -24z" />
    <glyph glyph-name="dotlessi" unicode="&#x131;" 
d="M249 71q13 -13 32 -13h35v-58h-281v58h35q19 0 32.5 13t13.5 32v165q0 19 -13.5 32.5t-32.5 13.5h-25v57h191v-268q0 -19 13 -32z" />
    <glyph glyph-name="Lacute" unicode="&#x139;" horiz-adv-x="781" 
d="M746 194v-194h-711v68h53q27 0 46 19t19 46v234q0 27 -19 46t-46 19h-53v68h365v-68h-53q-27 0 -46 -19t-19 -46v-292h304q42 0 71.5 29.5t29.5 70.5v19h59zM515.5 650q-6.5 -11 -17.5 -17l-142 -70l-26 31l112 114q15 13 33 13q19 0 33 -14t14 -33q0 -13 -6.5 -24z" />
    <glyph glyph-name="lacute" unicode="&#x13a;" 
d="M249 71q13 -13 32 -13h35v-58h-281v58h35q19 0 32.5 13t13.5 32v319q0 19 -13.5 32.5t-32.5 13.5h-35v57h201v-422q0 -19 13 -32zM260.5 665q-6.5 -11 -17.5 -17l-142 -70l-26 31l112 114q15 13 33 13q19 0 33 -14t14 -33q0 -13 -6.5 -24z" />
    <glyph glyph-name="Nacute" unicode="&#x143;" horiz-adv-x="900" 
d="M865 500v-68h-23q-27 0 -46 -19t-19 -46v-367h-172l-369 425v-292q0 -27 19 -46t46 -19h53v-68h-319v68h43q27 0 46 19t19 46v234q0 27 -19 46t-46 19h-43v68h313l336 -387v254q0 27 -19.5 46t-46.5 19h-33v68h280zM535.5 650q-6.5 -11 -17.5 -17l-142 -70l-26 31
l112 114q15 13 33 13q19 0 33 -14t14 -33q0 -13 -6.5 -24z" />
    <glyph glyph-name="nacute" unicode="&#x144;" horiz-adv-x="717" 
d="M682 58v-58h-282v58h36q19 0 32 13t13 31v118q0 41 -32.5 67.5t-90.5 26.5q-41 0 -69 -21.5t-53 -49.5v-141q0 -18 13 -31t31 -13h37v-58h-282v58h36q19 0 32 13t13 31v166q0 19 -13 32t-32 13h-36v58h201v-52q26 28 69.5 47.5t100.5 19.5q60 0 104 -22t67.5 -59
t23.5 -80v-123q0 -18 13 -31t31 -13h37zM469.5 525q-6.5 -11 -17.5 -17l-142 -70l-26 31l112 114q15 13 33 13q19 0 33 -14t14 -33q0 -13 -6.5 -24z" />
    <glyph glyph-name="Racute" unicode="&#x154;" horiz-adv-x="871" 
d="M836 139v-9q0 -57 -34 -98t-99 -41q-41 0 -75.5 10t-63.5 43l-72 83q-29 33 -68 51t-82 18h-60v-63q0 -27 19 -46t46 -19h53v-68h-365v68h53q27 0 46 19t19 46v232q0 27 -19 46t-46 19h-53v70h477q103 0 157.5 -42.5t54.5 -109.5q0 -40 -20.5 -74.5t-61 -55.5t-96.5 -21
q41 -4 69 -22.5t76 -70.5l13 -14l-12 13q17 -17 38 -17q16 0 27 12t11 36v5h68zM580 349q0 37 -30 58t-87 21h-181v-161h181q117 0 117 82zM495.5 650q-6.5 -11 -17.5 -17l-142 -70l-26 31l112 114q15 13 33 13q19 0 33 -14t14 -33q0 -13 -6.5 -24z" />
    <glyph glyph-name="racute" unicode="&#x155;" horiz-adv-x="461" 
d="M446 262h-33q-2 2 -8.5 9t-20 13.5t-30.5 6.5q-33 0 -59.5 -13t-42.5 -28.5t-16 -17.5v-131q0 -18 12.5 -30.5t30.5 -12.5h38v-58h-282v58h37q18 0 31 12.5t13 30.5v169q0 18 -13 31t-31 13h-37v57h201v-71q0 3 16.5 23.5t43.5 38t61 17.5q27 0 47 -6.5t31 -14.5t11 -9
v-87zM324.5 525q-6.5 -11 -17.5 -17l-142 -70l-26 31l112 114q15 13 33 13q19 0 33 -14t14 -33q0 -13 -6.5 -24z" />
    <glyph glyph-name="Sacute" unicode="&#x15a;" horiz-adv-x="749" 
d="M236.5 5.5q-70.5 14.5 -122.5 40.5l-24 -45h-55v186h55q2 -14 35.5 -44t98 -55t154.5 -25q64 0 114.5 18t50.5 47q0 27 -34 40.5t-121 27.5q-157 25 -253 60.5t-96 102.5q0 77 74 114.5t198 37.5q105 0 171 -14t119 -41l24 45h55v-166h-55q1 9 -27.5 36t-88.5 49.5
t-151 22.5q-75 0 -110.5 -15t-35.5 -39q0 -21 45.5 -34.5t151.5 -30.5q134 -21 219.5 -62t85.5 -121q0 -84 -90.5 -117t-214.5 -33q-102 0 -172.5 14.5zM468.5 650q-6.5 -11 -17.5 -17l-142 -70l-26 31l112 114q15 13 33 13q19 0 33 -14t14 -33q0 -13 -6.5 -24z" />
    <glyph glyph-name="sacute" unicode="&#x15b;" horiz-adv-x="574" 
d="M94 34l-18 -34h-41v139h41q2 -10 26.5 -32t72 -40t114.5 -18q46 0 78.5 11.5t32.5 29.5q0 13 -9.5 20t-29.5 11.5t-65 11.5q-83 13 -133 25t-87.5 38t-37.5 69q0 54 60.5 83.5t168.5 29.5q106 0 188 -40l17 33h41v-123h-41q1 6 -20 25.5t-65.5 35.5t-112.5 16
q-55 0 -77.5 -9.5t-22.5 -27.5q0 -16 30 -24.5t108 -19.5q99 -14 163 -42.5t64 -83.5q0 -68 -72.5 -96.5t-179.5 -28.5q-111 0 -193 41zM376.5 525q-6.5 -11 -17.5 -17l-142 -70l-26 31l112 114q15 13 33 13q19 0 33 -14t14 -33q0 -13 -6.5 -24z" />
    <glyph glyph-name="Zacute" unicode="&#x179;" horiz-adv-x="818" 
d="M783 194v-194h-748v65l514 360h-366q-28 0 -48.5 -20t-20.5 -47v-27h-69v169h728v-75l-503 -350h343q42 0 71.5 29.5t29.5 70.5v19h69zM525.5 650q-6.5 -11 -17.5 -17l-142 -70l-26 31l112 114q15 13 33 13q19 0 33 -14t14 -33q0 -13 -6.5 -24z" />
    <glyph glyph-name="zacute" unicode="&#x17a;" horiz-adv-x="631" 
d="M579 306l-337 -243l247 1q20 0 34 13.5t14 33.5v23h59v-134h-561v65l346 249h-231q-20 0 -34 -14t-14 -34v-29h-59v134h536v-65zM437.5 525q-6.5 -11 -17.5 -17l-142 -70l-26 31l112 114q15 13 33 13q19 0 33 -14t14 -33q0 -13 -6.5 -24z" />
    <glyph glyph-name="uni01F4" unicode="&#x1f4;" horiz-adv-x="851" 
d="M816 263v-262h-59l-28 54q-98 -65 -270 -65q-188 0 -306 65t-118 195t118 195t306 65h1q87 0 144.5 -15t99.5 -47l25 52h55v-186h-60q-25 66 -93 95t-172 29q-123 0 -193 -45t-70 -141q0 -90 69 -138.5t174 -48.5q81 0 152 26t90 67v32h-199v73h334zM565.5 650
q-6.5 -11 -17.5 -17l-142 -70l-26 31l112 114q15 13 33 13q19 0 33 -14t14 -33q0 -13 -6.5 -24z" />
    <glyph glyph-name="uni01F5" unicode="&#x1f5;" horiz-adv-x="696" 
d="M154 -176.5q-56 23.5 -84 50.5t-28 32l64 47q0 -4 21 -23.5t63 -36.5t105 -17q89 0 133 34.5t44 98.5l1 30q-74 -57 -174 -57h-1q-115 0 -189 51.5t-74 148.5q0 96 74 147.5t189 51.5h1q94 0 174 -60v50h188v-58h-34q-17 0 -29.5 -13t-12.5 -32v-216q0 -129 -73.5 -190.5
t-217.5 -61.5q-84 0 -140 23.5zM430.5 84q43.5 33 43.5 98q3 127 -160 134q-70 0 -112.5 -34t-42.5 -100q0 -65 42.5 -98t112.5 -33q73 0 116.5 33zM470.5 525q-6.5 -11 -17.5 -17l-142 -70l-26 31l112 114q15 13 33 13q19 0 33 -14t14 -33q0 -13 -6.5 -24z" />
    <glyph glyph-name="uni01F8" unicode="&#x1f8;" horiz-adv-x="900" 
d="M865 500v-68h-23q-27 0 -46 -19t-19 -46v-367h-172l-369 425v-292q0 -27 19 -46t46 -19h53v-68h-319v68h43q27 0 46 19t19 46v234q0 27 -19 46t-46 19h-43v68h313l336 -387v254q0 27 -19.5 46t-46.5 19h-33v68h280zM314 707q14 14 33 14q18 0 33 -13l112 -114l-26 -31
l-142 70q-11 6 -17.5 17t-6.5 24q0 19 14 33z" />
    <glyph glyph-name="uni01F9" unicode="&#x1f9;" horiz-adv-x="717" 
d="M682 58v-58h-282v58h36q19 0 32 13t13 31v118q0 41 -32.5 67.5t-90.5 26.5q-41 0 -69 -21.5t-53 -49.5v-141q0 -18 13 -31t31 -13h37v-58h-282v58h36q19 0 32 13t13 31v166q0 19 -13 32t-32 13h-36v58h201v-52q26 28 69.5 47.5t100.5 19.5q60 0 104 -22t67.5 -59
t23.5 -80v-123q0 -18 13 -31t31 -13h37zM231 582q14 14 33 14q18 0 33 -13l112 -114l-26 -31l-142 70q-11 6 -17.5 17t-6.5 24q0 19 14 33z" />
    <glyph glyph-name="uni0237" unicode="&#x237;" horiz-adv-x="292" 
d="M257 63q0 -77 -31 -128.5t-79 -75.5t-101 -25l-11 60q45 4 73.5 40t28.5 119v215q0 19 -13 32t-32 13h-35v58h200v-308z" />
    <glyph glyph-name="uni1E30" unicode="&#x1e30;" horiz-adv-x="906" 
d="M842 68h29v-68h-349v68h41q11 0 18 7.5t7 17.5q0 11 -9 18l-144 122l-153 -94v-18q1 -25 19 -39t46 -14h33v-68h-345v68h53q27 0 46 19t19 46v234q0 27 -19 46t-46 19h-53v68h345v-68h-33q-27 0 -46 -19t-19 -46v-135l283 174q6 5 6 11t-4.5 10.5t-10.5 4.5h-49v68h325
v-68h-44q-29 0 -57 -17l-195 -120l239 -202q29 -25 67 -25zM525.5 650q-6.5 -11 -17.5 -17l-142 -70l-26 31l112 114q15 13 33 13q19 0 33 -14t14 -33q0 -13 -6.5 -24z" />
    <glyph glyph-name="uni1E31" unicode="&#x1e31;" horiz-adv-x="742" 
d="M652 58h35v-58h-281v58h16q8 0 13.5 5.5t5.5 12.5t-6 13l-85 83l-114 -74q0 -16 12 -28t28 -12h41v-58h-282v58h35q19 0 32.5 13t13.5 32v294q0 19 -13.5 32t-32.5 13h-35v58h201v-319l150 104q7 4 7 12q0 6 -4 10.5t-11 4.5h-38v57h282v-57h-31q-24 0 -45 -13l-112 -75
l160 -143q23 -23 58 -23zM562.5 543q-6.5 -11 -17.5 -17l-142 -70l-26 31l112 114q15 13 33 13q19 0 33 -14t14 -33q0 -13 -6.5 -24z" />
    <glyph glyph-name="uni1E3E" unicode="&#x1e3e;" horiz-adv-x="1038" 
d="M904 413q-19 -19 -19 -46v-234q0 -27 19 -46t46 -19h53v-68h-365v68h53q27 0 46 19t19 46v292l-203 -425h-134l-203 425v-302q0 -27 19 -46t46 -19h33v-58h-279v68h23q27 0 46 19t19 46v234q0 27 -19 46t-46 19h-23v68h295l177 -379l1 -2l181 381h314v-68h-53
q-27 0 -46 -19zM615.5 650q-6.5 -11 -17.5 -17l-142 -70l-26 31l112 114q15 13 33 13q19 0 33 -14t14 -33q0 -13 -6.5 -24z" />
    <glyph glyph-name="uni1E3F" unicode="&#x1e3f;" horiz-adv-x="1061" 
d="M1026 58v-58h-281v58h31q18 0 30.5 12.5t12.5 30.5v119q0 41 -31.5 67.5t-86.5 26.5q-52 0 -81 -29t-29 -66v-118q0 -18 12.5 -30.5t30.5 -12.5h38v-58h-282v58h38q18 0 30.5 12.5t12.5 30.5v119q0 41 -33 67.5t-90 26.5q-34 0 -59 -16.5t-53 -43.5v-153
q0 -18 12.5 -30.5t30.5 -12.5h38v-58h-282v58h38q17 0 30 12.5t13 30.5v169q0 18 -13 31t-30 13h-38v57h201v-42q26 25 66.5 41t93.5 16q57 0 99.5 -19.5t66.5 -53.5q24 31 69.5 52t105.5 21t106 -22t71 -59t25 -80v-124q0 -18 12.5 -30.5t30.5 -12.5h44zM748.5 525
q-6.5 -11 -17.5 -17l-142 -70l-26 31l112 114q15 13 33 13q19 0 33 -14t14 -33q0 -13 -6.5 -24z" />
    <glyph glyph-name="uni1E54" unicode="&#x1e54;" horiz-adv-x="759" 
d="M501 500q71 0 121.5 -21t76 -57t25.5 -81q0 -44 -25.5 -80t-76 -57t-121.5 -21h-219v-50q0 -27 19 -46t46 -19h53v-68h-365v68h53q27 0 46 19t19 46v231q0 27 -19 46t-46 19h-53v71h466zM456 264q61 0 92.5 21.5t31.5 61.5q0 36 -32 58t-92 22h-174v-163h174zM495.5 650
q-6.5 -11 -17.5 -17l-142 -70l-26 31l112 114q15 13 33 13q19 0 33 -14t14 -33q0 -13 -6.5 -24z" />
    <glyph glyph-name="uni1E55" unicode="&#x1e55;" horiz-adv-x="734" 
d="M620.5 329.5q78.5 -51.5 78.5 -147.5q0 -97 -78.5 -148.5t-200.5 -51.5h-1q-54 0 -101 15t-83 42l1 -89q0 -19 13.5 -32.5t32.5 -13.5h35v-58h-282v58h36q19 0 32 13t13 31v320q0 19 -13 32t-32 13h-36v58h200v-50q84 60 184 60h1q122 0 200.5 -51.5zM527 84q46 33 46 98
q0 67 -46 100.5t-124 33.5q-80 -1 -125.5 -34t-44.5 -100q0 -65 46.5 -98t123.5 -33q78 0 124 33zM484.5 525q-6.5 -11 -17.5 -17l-142 -70l-26 31l112 114q15 13 33 13q19 0 33 -14t14 -33q0 -13 -6.5 -24z" />
    <glyph glyph-name="Wgrave" unicode="&#x1e80;" horiz-adv-x="1142" 
d="M1107 501v-68q-41 -3 -62 -11t-31 -31l-177 -401h-106l-136 326l-137 -326h-106l-216 412q-16 31 -73 31h-28v68h326v-68h-42q-13 0 -20.5 -9t-7.5 -21q0 -8 3 -14l123 -259l111 259h-2q3 6 3 14q0 12 -7.5 21t-19.5 9h-25v67h262v-67h-24q-12 0 -20.5 -8.5t-8.5 -20.5
q0 -8 4 -15l-2 1l113 -264l107 263q3 6 3 14q0 12 -7.5 21t-19.5 9h-19v68h242zM506 707q14 14 33 14q18 0 33 -13l112 -114l-26 -31l-142 70q-11 6 -17.5 17t-6.5 24q0 19 14 33z" />
    <glyph glyph-name="wgrave" unicode="&#x1e81;" horiz-adv-x="935" 
d="M900 372v-59q-36 -3 -47.5 -10t-25.5 -32l-148 -271h-94l-109 196l-112 -196h-87l-161 282q-10 18 -24.5 24.5t-38.5 6.5h-18v59h286v-59h-22q-13 0 -20.5 -9t-7.5 -22q0 -7 3 -13l74 -155l85 155h-2q3 6 3 14q0 12 -7.5 21t-19.5 9h-25v58h252v-58h-24q-12 0 -20.5 -8.5
t-8.5 -20.5q0 -8 4 -15l-2 1l78 -165l82 164q3 6 3 14q0 12 -7.5 21t-19.5 9h-19v59h200zM413 582q14 14 33 14q18 0 33 -13l112 -114l-26 -31l-142 70q-11 6 -17.5 17t-6.5 24q0 19 14 33z" />
    <glyph glyph-name="Wacute" unicode="&#x1e82;" horiz-adv-x="1142" 
d="M1107 501v-68q-41 -3 -62 -11t-31 -31l-177 -401h-106l-136 326l-137 -326h-106l-216 412q-16 31 -73 31h-28v68h326v-68h-42q-13 0 -20.5 -9t-7.5 -21q0 -8 3 -14l123 -259l111 259h-2q3 6 3 14q0 12 -7.5 21t-19.5 9h-25v67h262v-67h-24q-12 0 -20.5 -8.5t-8.5 -20.5
q0 -8 4 -15l-2 1l113 -264l107 263q3 6 3 14q0 12 -7.5 21t-19.5 9h-19v68h242zM707.5 650q-6.5 -11 -17.5 -17l-142 -70l-26 31l112 114q15 13 33 13q19 0 33 -14t14 -33q0 -13 -6.5 -24z" />
    <glyph glyph-name="wacute" unicode="&#x1e83;" horiz-adv-x="935" 
d="M900 372v-59q-36 -3 -47.5 -10t-25.5 -32l-148 -271h-94l-109 196l-112 -196h-87l-161 282q-10 18 -24.5 24.5t-38.5 6.5h-18v59h286v-59h-22q-13 0 -20.5 -9t-7.5 -22q0 -7 3 -13l74 -155l85 155h-2q3 6 3 14q0 12 -7.5 21t-19.5 9h-25v58h252v-58h-24q-12 0 -20.5 -8.5
t-8.5 -20.5q0 -8 4 -15l-2 1l78 -165l82 164q3 6 3 14q0 12 -7.5 21t-19.5 9h-19v59h200zM597.5 525q-6.5 -11 -17.5 -17l-142 -70l-26 31l112 114q15 13 33 13q19 0 33 -14t14 -33q0 -13 -6.5 -24z" />
    <glyph glyph-name="Ygrave" unicode="&#x1ef2;" horiz-adv-x="828" 
d="M793 500v-68h-36q-16 0 -27 -6t-24 -19l-208 -217v-67q0 -9 9.5 -22.5t24.5 -23t32 -9.5h33v-68h-326v68h33q26 0 45.5 17t19.5 38v49l-231 222q-18 18 -32.5 28t-36.5 10h-34v68h302v-68h-39q-6 0 -10 -4t-4 -10t4 -10l153 -152l151 152q4 4 4 10t-4 10t-10 4h-33v68
h244zM314 707q14 14 33 14q18 0 33 -13l112 -114l-26 -31l-142 70q-11 6 -17.5 17t-6.5 24q0 19 14 33z" />
    <glyph glyph-name="ygrave" unicode="&#x1ef3;" horiz-adv-x="705" 
d="M670 371v-58h-19q-23 0 -42.5 -11t-31.5 -31l-204 -339q-26 -40 -44.5 -62.5t-48 -36.5t-74.5 -14q-36 0 -60.5 12t-36.5 25t-12 16l58 48q2 -2 9.5 -9t20.5 -13.5t29 -6.5t26.5 5t19 15t17.5 22l31 47l-172 292q-12 19 -31.5 30t-41.5 11h-28v58h326v-58h-52
q-12 0 -20.5 -8.5t-8.5 -20.5q0 -8 4 -15l95 -163l101 163q4 7 4 15q0 12 -8 20.5t-20 8.5h-28v58h242zM309 582q14 14 33 14q18 0 33 -13l112 -114l-26 -31l-142 70q-11 6 -17.5 17t-6.5 24q0 19 14 33z" />
    <glyph glyph-name="endash" unicode="&#x2013;" horiz-adv-x="630" 
d="M605 238h-580v76h580v-76z" />
    <glyph glyph-name="emdash" unicode="&#x2014;" horiz-adv-x="1184" 
d="M25 314h1134v-76h-1134v76z" />
    <glyph glyph-name="quoteleft" unicode="&#x2018;" horiz-adv-x="203" 
d="M155.5 286.5q-22.5 -23.5 -53.5 -23.5q-33 0 -53.5 20t-22.5 50v11q1 69 29 104.5t74 60.5l22 -37q-31 -16 -49.5 -34.5t-27.5 -52.5q3 9 14 16t29 7q26 2 43.5 -17t17.5 -51q0 -30 -22.5 -53.5z" />
    <glyph glyph-name="quoteright" unicode="&#x2019;" horiz-adv-x="202" 
d="M177 429q-1 -69 -29 -104.5t-74 -60.5l-22 37q31 16 49.5 34.5t27.5 52.5q-3 -9 -14 -16t-29 -7q-26 -2 -43.5 17t-17.5 51q0 30 22.5 53.5t53.5 23.5q33 0 53.5 -20t22.5 -50v-11z" />
    <glyph glyph-name="quotedblleft" unicode="&#x201c;" horiz-adv-x="391" 
d="M160.5 391q17.5 -19 17.5 -51q0 -30 -22.5 -53.5t-53.5 -23.5q-33 0 -53.5 20t-22.5 50v11q1 69 29 104.5t74 60.5l22 -37q-31 -16 -49.5 -34.5t-27.5 -52.5q3 9 14 16t29 7q26 2 43.5 -17zM343.5 286.5q-22.5 -23.5 -53.5 -23.5q-33 0 -53.5 20t-22.5 50v11
q1 69 29 104.5t74 60.5l22 -37q-31 -16 -49.5 -34.5t-27.5 -52.5q3 9 14 16t29 7q26 2 43.5 -17t17.5 -51q0 -30 -22.5 -53.5z" />
    <glyph glyph-name="quotedblright" unicode="&#x201d;" horiz-adv-x="390" 
d="M177 429q-1 -69 -29 -104.5t-74 -60.5l-22 37q31 16 49.5 34.5t27.5 52.5q-3 -9 -14 -16t-29 -7q-26 -2 -43.5 17t-17.5 51q0 30 22.5 53.5t53.5 23.5q33 0 53.5 -20t22.5 -50v-11zM365 429q-1 -69 -29 -104.5t-74 -60.5l-22 37q31 16 49.5 34.5t27.5 52.5q-3 -9 -14 -16
t-29 -7q-26 -2 -43.5 17t-17.5 51q0 30 22.5 53.5t53.5 23.5q33 0 53.5 -20t22.5 -50v-11z" />
    <glyph glyph-name="bullet" unicode="&#x2022;" horiz-adv-x="282" 
d="M59 169q-34 34 -34 83q0 48 34 82t82 34t82 -34t34 -82q0 -49 -34 -83t-82 -34t-82 34z" />
    <glyph glyph-name="ellipsis" unicode="&#x2026;" horiz-adv-x="601" 
d="M46.5 11q-21.5 22 -21.5 53q0 30 22 52.5t52 22.5q35 0 55.5 -21.5t20.5 -53.5t-21.5 -53.5t-54.5 -21.5q-31 0 -52.5 22zM245.5 11q-21.5 22 -21.5 53q0 30 22 52.5t52 22.5q35 0 55.5 -21.5t20.5 -53.5t-21.5 -53.5t-54.5 -21.5q-31 0 -52.5 22zM447.5 11
q-21.5 22 -21.5 53q0 30 22 52.5t52 22.5q35 0 55.5 -21.5t20.5 -53.5t-21.5 -53.5t-54.5 -21.5q-31 0 -52.5 22z" />
    <glyph glyph-name="Euro" unicode="&#x20ac;" horiz-adv-x="847" 
d="M373 415.5q-55 -22.5 -83 -67.5h324v-68h-348q-2 -20 -2 -30q0 -12 2 -32h348v-68h-325q29 -46 84 -67t124 -21q92 0 161.5 29.5t93.5 94.5h60v-186h-55l-25 52q-81 -62 -234 -62h-1q-129 0 -230 40.5t-141 119.5h-91v68h70q-2 20 -2 32q0 10 2 30h-70v68h90
q40 80 141 121t231 41h1q153 0 234 -62l25 52h55v-186h-60q-24 65 -93.5 94.5t-161.5 29.5q-69 0 -124 -22.5z" />
    <glyph glyph-name="trademark" unicode="&#x2122;" horiz-adv-x="617" 
d="M261 451h-18v11q0 9 -5.5 13.5t-14.5 4.5h-54v-92q0 -8 6 -14t14 -6h16v-21h-113v21h16q8 0 14.5 6t6.5 14v92h-54q-9 0 -15 -6.5t-6 -14.5v-8h-18v51h225v-51zM551 475q-6 -6 -6 -14v-73q0 -8 6 -14t15 -6h16v-21h-113v21h16q8 0 14 6t6 14v91l-63 -132h-41l-63 132v-94
q0 -8 6 -14t14 -6h10v-18h-86v21h7q8 0 14 6t6 14v73q0 8 -6 14t-14 6h-7v21h91l55 -117l1 -1l56 118h97v-21h-16q-9 0 -15 -6z" />
    <glyph glyph-name="f_i" horiz-adv-x="701" 
d="M461 438.5q-22 21.5 -22 51.5q0 29 22 50.5t51 21.5t51 -21.5t22 -50.5q0 -30 -22 -51.5t-51 -21.5t-51 21.5zM666 58v-58h-281v58h35q19 0 32.5 13t13.5 32v165q0 19 -13.5 32.5t-32.5 13.5h-185v-211q0 -19 13 -32t32 -13h34v-58h-279v58h34q19 0 32.5 13t13.5 32v211
h-80v57h80v39q0 62 36.5 101.5t109.5 39.5q32 0 53.5 -8.5t30.5 -17.5v-57q-12 10 -24 14.5t-28 4.5q-24 0 -41 -17t-17 -46v-53h351v-268q0 -19 13 -32t32 -13h35z" />
    </font>
</defs>
</svg>
